eztv.io | Tuesday 18th of June 2019 01:26 PM ET
Search: or 
 

Last Week Tonight With John Oliver S05E23 WEBRip x264-eSc EZTV

Episode Breakdown
Last Week Tonight with John Oliver
Last Week Tonight with John Oliver TV Show S05E23

Season: 5
Episode: 23
Air Date: 23 September, 2018
Download Links
     Torrent Download     Magnet Download
Added 8 months ago by eztv (verified).
Tracker Statistics
Seeds: 1
Peers: 0
Stats generated @ 13:26 on 18th Jun 2019
Torrent Info
Torrent File: Last.Week.Tonight.With.John.Oliver.S05E23.WEBRip.x264-eSc[eztv].mkv
Torrent Hash: 96E5ABD6644FA6409E80F10FE911CBE851C5DB04
Filesize: 190.55 MB
Released: 24th Sep 2018

File Format: MKV (Matroska)
Resolution: 720x404 px
Aspect Ratio: 16:9
Alternate Releases S L
Last Week Tonight With John Oliver S05E23 720p WEBRip x264-eSc 1 0
Last Week Tonight With John Oliver S05E23 720p HDTV x264-aAF 7 0
Last Week Tonight With John Oliver S05E23 HDTV x264-aAF 6 1
Last Week Tonight with John Oliver S5E23 Facebook
Last Week Tonight with John Oliver S5E23 Screenshot
[header]



On Last Week Tonight with John Oliver, John Oliver presents a satirical look at the week in news, politics and current events.

http://www.tvmaze.com/shows/263/last-week-tonight-with-john-oliver

Cast

John Oliver ... Himself









Infomation


General
Format                                   : Matroska
Format version                           : Version 4 / Version 2
File size                                : 191 MiB
Duration                                 : 29 min 29 s
Overall bit rate                         : 903 kb/s
Encoded date                             : UTC 2018-09-24 03:54:39
Writing application                      : mkvmerge v22.0.0 ('At The End Of The World') 64-bit
Writing library                          : libebml v1.3.5 + libmatroska v1.4.8

Video
ID                                       : 1
Format                                   : AVC
Format/Info                              : Advanced Video Codec
Format profile                           : [email protected]
Format settings                          : CABAC / 4 Ref Frames
Format settings, CABAC                   : Yes
Format settings, RefFrames               : 4 frames
Codec ID                                 : V_MPEG4/ISO/AVC
Duration                                 : 29 min 29 s
Bit rate                                 : 771 kb/s
Width                                    : 720 pixels
Height                                   : 404 pixels
Display aspect ratio                     : 16:9
Original display aspect ratio            : 16:9
Frame rate mode                          : Constant
Frame rate                               : 29.970 (30000/1001) FPS
Color space                              : YUV
Chroma subsampling                       : 4:2:0
Bit depth                                : 8 bits
Scan type                                : Progressive
Bits/(Pixel*Frame)                       : 0.088
Stream size                              : 163 MiB (85%)
Writing library                          : x264 core 142 r2479 dd79a61
Encoding settings                        : cabac=1 / ref=3 / deblock=1:0:0 / analyse=0x3:0x113 / me=hex / subme=7 / psy=1 / psy_rd=1.00:0.00 / mixed_ref=1 / me_range=16 / chroma_me=1 / trellis=1 / 8x8dct=1 / cqm=0 / deadzone=21,11 / fast_pskip=1 / chroma_qp_offset=-2 / threads=12 / lookahead_threads=2 / sliced_threads=0 / nr=0 / decimate=1 / interlaced=0 / bluray_compat=0 / constrained_intra=0 / bframes=3 / b_pyramid=2 / b_adapt=1 / b_bias=0 / direct=1 / weightb=1 / open_gop=0 / weightp=2 / keyint=300 / keyint_min=30 / scenecut=40 / intra_refresh=0 / rc_lookahead=40 / rc=crf / mbtree=1 / crf=19.0 / qcomp=0.60 / qpmin=0 / qpmax=69 / qpstep=4 / vbv_maxrate=17500 / vbv_bufsize=17500 / crf_max=0.0 / nal_hrd=none / filler=0 / ip_ratio=1.40 / aq=1:1.00
Default                                  : Yes
Forced                                   : No
Color range                              : Limited
Color primaries                          : BT.709
Transfer characteristics                 : BT.709
Matrix coefficients                      : BT.709

Audio
ID                                       : 2
Format                                   : AAC
Format/Info                              : Advanced Audio Codec
Format profile                           : LC
Codec ID                                 : A_AAC-2
Duration                                 : 29 min 29 s
Bit rate                                 : 132 kb/s
Channel(s)                               : 2 channels
Channel positions                        : Front: L R
Sampling rate                            : 48.0 kHz
Frame rate                               : 46.875 FPS (1024 SPF)
Compression mode                         : Lossy
Stream size                              : 27.4 MiB (14%)
Title                                    : Stereo
Default                                  : Yes
Forced                                   : No



[footer]
ssl  EZTV RSS EZTV Status | EZTV API | DMCA: [email protected]