eztv.io | Wednesday 20th of February 2019 07:01 AM ET
Search: or 
 

Autopsy The Last Hours Of S08E01 Christopher Reeve 720p HDTV x264-eSc EZTV

Episode Breakdown
Autopsy: The Last Hours of
Autopsy: The Last Hours of TV Show S08E01

Season: 8
Episode: 1
Air Date: 10 February, 2019
Download Links
     Torrent Download     Magnet Download
Added 8 days ago by eztv (verified).
Tracker Statistics
Seeds: 0
Peers: 0
Stats generated @ 07:01 on 20th Feb 2019
Torrent Info
Torrent File: Autopsy.The.Last.Hours.Of.S08E01.Christopher.Reeve.720p.HDTV.x264-eSc[eztv].mkv
Torrent Hash: 53CF592C4C5DDB7B1A1F42601B9FB4665FB53BE4
Filesize: 938.41 MB
Released: 11th Feb 2019

File Format: MKV (Matroska)
Resolution: 1280x720 px
Aspect Ratio: 16:9
Alternate Releases S L
Autopsy The Last Hours Of S08E01 Christopher Reeve HDTV x264-eSc 8 1

Autopsy: The Last Hours of S08E01 - Christopher Reeve

Summary:
Autopsy The Last Hours Of S08E01 Christopher Reeve 720p HDTV x264-eSc EZTV
Autopsy: The Last Hours of S8E1 Screenshot
[header]



Celebrity fact and fiction are forever separated as Autopsy: The Last Hours Of... reveals the truth behind the controversial deaths of some of the most famous celebrities. The sudden and tragic passing of these global mega-stars sent the world into a frenzy fueled by hearsay and rumor. Now crucial medical evidence gained from the actual autopsies explains what killed the stars and reveals how they died, finally putting an end to the speculation.

http://www.tvmaze.com/shows/4959/autopsy-the-last-hours-of

Cast

Dr. Richard Shepherd ... Forensic Pathologist
Anjula Mutanda ... Psychologist
Eric Meyers ... Narrator
Iain Glen ... Narrator









Infomation


General
Format                                   : Matroska
Format version                           : Version 4
File size                                : 938 MiB
Duration                                 : 44 min 20 s
Overall bit rate                         : 2 959 kb/s
Encoded date                             : UTC 2019-02-11 18:40:05
Writing application                      : mkvmerge v22.0.0 ('At The End Of The World') 64-bit
Writing library                          : libebml v1.3.5 + libmatroska v1.4.8

Video
ID                                       : 1
Format                                   : AVC
Format/Info                              : Advanced Video Codec
Format profile                           : [email protected]
Format settings                          : CABAC / 4 Ref Frames
Format settings, CABAC                   : Yes
Format settings, RefFrames               : 4 frames
Codec ID                                 : V_MPEG4/ISO/AVC
Duration                                 : 44 min 20 s
Bit rate                                 : 2 573 kb/s
Width                                    : 1 280 pixels
Height                                   : 718 pixels
Display aspect ratio                     : 16:9
Frame rate mode                          : Constant
Frame rate                               : 29.970 (30000/1001) FPS
Color space                              : YUV
Chroma subsampling                       : 4:2:0
Bit depth                                : 8 bits
Scan type                                : Progressive
Bits/(Pixel*Frame)                       : 0.093
Stream size                              : 816 MiB (87%)
Writing library                          : x264 core 157 r2935 545de2f
Encoding settings                        : cabac=1 / ref=3 / deblock=1:0:0 / analyse=0x3:0x113 / me=hex / subme=7 / psy=1 / psy_rd=1.00:0.00 / mixed_ref=1 / me_range=16 / chroma_me=1 / trellis=1 / 8x8dct=1 / cqm=0 / deadzone=21,11 / fast_pskip=1 / chroma_qp_offset=-2 / threads=12 / lookahead_threads=2 / sliced_threads=0 / nr=0 / decimate=1 / interlaced=0 / bluray_compat=0 / constrained_intra=0 / bframes=3 / b_pyramid=2 / b_adapt=1 / b_bias=0 / direct=1 / weightb=1 / open_gop=0 / weightp=2 / keyint=250 / keyint_min=25 / scenecut=40 / intra_refresh=0 / rc_lookahead=40 / rc=crf / mbtree=1 / crf=18.0 / qcomp=0.60 / qpmin=0 / qpmax=69 / qpstep=4 / ip_ratio=1.40 / aq=1:1.00
Default                                  : Yes
Forced                                   : No

Audio
ID                                       : 2
Format                                   : AC-3
Format/Info                              : Audio Coding 3
Commercial name                          : Dolby Digital
Codec ID                                 : A_AC3
Duration                                 : 44 min 20 s
Bit rate mode                            : Constant
Bit rate                                 : 384 kb/s
Channel(s)                               : 2 channels
Channel layout                           : L R
Sampling rate                            : 48.0 kHz
Frame rate                               : 31.250 FPS (1536 SPF)
Bit depth                                : 16 bits
Compression mode                         : Lossy
Delay relative to video                  : -5 ms
Stream size                              : 122 MiB (13%)
Language                                 : English
Service kind                             : Complete Main
Default                                  : Yes
Forced                                   : No



[footer]
ssl  EZTV RSS EZTV Status | EZTV API | DMCA: [email protected]