eztv.io | Wednesday 20th of February 2019 06:29 AM ET
Search: or 
 

CopyCat Killers S06E01 Silence Of The Lambs HDTV x264-eSc EZTV

Episode Breakdown
Copycat Killers
Copycat Killers TV Show S06E01

Season: 6
Episode: 1
Air Date: 2 February, 2019
Download Links
     Torrent Download     Magnet Download
Added 8 days ago by eztv (verified).
Tracker Statistics
Seeds: 13
Peers: 1
Stats generated @ 06:29 on 20th Feb 2019
Torrent Info
Torrent File: CopyCat.Killers.S06E01.Silence.Of.The.Lambs.HDTV.x264-eSc[eztv].mkv
Torrent Hash: 53E3674ECAB89E69C8CF1BBFA33BFDA8E088D29B
Filesize: 246.66 MB
Released: 11th Feb 2019

File Format: MKV (Matroska)
Resolution: 720x404 px
Aspect Ratio: 16:9

Copycat Killers S06E01 - Silence of the Lambs

Summary:

At a young age, Michael Hernandez develops a dark obsession with serial killers—specifically, Hannibal Lecter and Buffalo Bill from Silence of the Lambs. In an attempt to mirror these horror villains, Hernandez decides to start his very own killing spree. He lures classmates Jamie Gough and Andre Martin into his school bathroom, and only one of them lives to tell the tale.



CopyCat Killers S06E01 Silence Of The Lambs HDTV x264-eSc EZTV
Copycat Killers S6E1 Screenshot
[header]



This series goes behind the headlines of real-life murder cases which copy memorable slayings seen in Hollywood movies. Each episode features a mystifying murder scene and law enforcement's hunt for the killer. Whether it's two high school students terrorizing and killing a female classmate to copy the horror blockbuster Scream or the gruesome acts of pig farmer and serial killer, Robert Pickton, who copied Hannibal and fed his victims to his pigs - these horrific scenes actually happened but very few people know the real stories that led to these killings. "CopyCat Killers" includes interviews with investigators, family members of victims and forensic experts. The series also features high quality recreations, extensive archive and original documents from police case files.

http://www.tvmaze.com/shows/11569/copycat-killers

Cast

Brian Stivale ... Narrator
Russell Williams II ... Commentator
J. Buzz Von Ornsteiner ... Analyst









Infomation


General
Format                                   : Matroska
Format version                           : Version 4
File size                                : 247 MiB
Duration                                 : 44 min 20 s
Overall bit rate                         : 778 kb/s
Encoded date                             : UTC 2019-02-11 18:39:46
Writing application                      : mkvmerge v22.0.0 ('At The End Of The World') 64-bit
Writing library                          : libebml v1.3.5 + libmatroska v1.4.8

Video
ID                                       : 1
Format                                   : AVC
Format/Info                              : Advanced Video Codec
Format profile                           : [email protected]
Format settings                          : CABAC / 4 Ref Frames
Format settings, CABAC                   : Yes
Format settings, RefFrames               : 4 frames
Codec ID                                 : V_MPEG4/ISO/AVC
Duration                                 : 44 min 20 s
Bit rate                                 : 647 kb/s
Width                                    : 720 pixels
Height                                   : 402 pixels
Display aspect ratio                     : 16:9
Frame rate mode                          : Constant
Frame rate                               : 29.970 (30000/1001) FPS
Color space                              : YUV
Chroma subsampling                       : 4:2:0
Bit depth                                : 8 bits
Scan type                                : Progressive
Bits/(Pixel*Frame)                       : 0.075
Stream size                              : 205 MiB (83%)
Writing library                          : x264 core 157 r2935 545de2f
Encoding settings                        : cabac=1 / ref=3 / deblock=1:0:0 / analyse=0x3:0x113 / me=hex / subme=7 / psy=1 / psy_rd=1.00:0.00 / mixed_ref=1 / me_range=16 / chroma_me=1 / trellis=1 / 8x8dct=1 / cqm=0 / deadzone=21,11 / fast_pskip=1 / chroma_qp_offset=-2 / threads=12 / lookahead_threads=2 / sliced_threads=0 / nr=0 / decimate=1 / interlaced=0 / bluray_compat=0 / constrained_intra=0 / bframes=3 / b_pyramid=2 / b_adapt=1 / b_bias=0 / direct=1 / weightb=1 / open_gop=0 / weightp=2 / keyint=250 / keyint_min=25 / scenecut=40 / intra_refresh=0 / rc_lookahead=40 / rc=crf / mbtree=1 / crf=19.0 / qcomp=0.60 / qpmin=0 / qpmax=69 / qpstep=4 / ip_ratio=1.40 / aq=1:1.00
Default                                  : Yes
Forced                                   : No

Audio
ID                                       : 2
Format                                   : AAC LC
Format/Info                              : Advanced Audio Codec Low Complexity
Codec ID                                 : A_AAC-2
Duration                                 : 44 min 20 s
Bit rate                                 : 128 kb/s
Channel(s)                               : 2 channels
Channel layout                           : L R
Sampling rate                            : 48.0 kHz
Frame rate                               : 46.875 FPS (1024 SPF)
Compression mode                         : Lossy
Delay relative to video                  : -21 ms
Stream size                              : 40.7 MiB (17%)
Language                                 : English
Default                                  : Yes
Forced                                   : No



[footer]
ssl  EZTV RSS EZTV Status | EZTV API | DMCA: [email protected]