eztv.io | Wednesday 23rd of September 2020 06:01 PM ET
Search: or 
 

Wentworth S08E02 1080p HDTV x264-Nemo EZTV

Episode Breakdown
Wentworth
Wentworth TV Show S08E02

Season: 8
Episode: 2
Air Date: 4 August, 2020
Download Links
     Torrent Download     Magnet Download
Added 1 month ago by eztv (verified).
Tracker Statistics
Seeds: 1
Peers: 52
Stats generated @ 18:01 on 23rd Sep 2020
Torrent Info
Torrent File: Wentworth - S08E02 - 1080p HDTV Nemo[eztv.io].mkv
Torrent Hash: 7814E841DBB8AE8290976B857FC780DD7B841085
Filesize: 2.39 GB
Released: 5th Aug 2020

File Format: MKV (Matroska)
Resolution: 1920x1080 px
Aspect Ratio: 16:9
Alternate Releases S L
Wentworth S08E02 AHDTV x264-FUtV 59 2
Wentworth S08E02 1080p AHDTV x264-FUtV 11 0
Wentworth S08E02 720p AHDTV x264-FUtV 14 3
Wentworth S08E02 1080p HEVC x265-MeGusta 0 26
Wentworth S08E02 720p HEVC x265-MeGusta 1 0
Wentworth S08E02 XviD-AFG 4 2

Wentworth S08E02 - Ends and Means

Summary:

Marie makes a desperate, last-ditch attempt to avenge her son.



Wentworth S8E2 Ends and Means
Wentworth S8E2 Screenshot
Format                                   : Matroska
Format version                           : Version 4 / Version 2
File size                                : 2.39 GiB
Duration                                 : 51 min 9 s
Overall bit rate                         : 6 698 kb/s
Encoded date                             : UTC 2020-08-04 13:33:50
Writing application                      : mkvmerge v9.6.0 ('Slave To Your Mind') 64bit
Writing library                          : libebml v1.3.4 + libmatroska v1.4.5

Video
ID                                       : 1
Format                                   : AVC
Format/Info                              : Advanced Video Codec
Format profile                           : [email protected]
Format settings, CABAC                   : Yes
Format settings, ReFrames                : 4 frames
Codec ID                                 : V_MPEG4/ISO/AVC
Duration                                 : 51 min 9 s
Bit rate                                 : 6 598 kb/s
Width                                    : 1 920 pixels
Height                                   : 1 080 pixels
Display aspect ratio                     : 16:9
Frame rate mode                          : Constant
Frame rate                               : 25.000 FPS
Color space                              : YUV
Chroma subsampling                       : 4:2:0
Bit depth                                : 8 bits
Scan type                                : Progressive
Bits/(Pixel*Frame)                       : 0.127
Stream size                              : 2.32 GiB (97%)
Writing library                          : x264 core 148 r2721 72d53ab
Encoding settings                        : cabac=1 / ref=4 / deblock=1:0:0 / analyse=0x3:0x133 / me=umh / subme=9 / psy=1 / psy_rd=1.00:0.00 / mixed_ref=1 / me_range=16 / chroma_me=1 / trellis=2 / 8x8dct=1 / cqm=0 / deadzone=21,11 / fast_pskip=1 / chroma_qp_offset=-2 / threads=12 / lookahead_threads=1 / sliced_threads=0 / nr=0 / decimate=1 / interlaced=0 / bluray_compat=0 / constrained_intra=0 / bframes=3 / b_pyramid=2 / b_adapt=2 / b_bias=0 / direct=3 / weightb=1 / open_gop=0 / weightp=2 / keyint=250 / keyint_min=25 / scenecut=40 / intra_refresh=0 / rc_lookahead=60 / rc=abr / mbtree=1 / bitrate=6598 / ratetol=1.0 / qcomp=0.60 / qpmin=0 / qpmax=69 / qpstep=4 / ip_ratio=1.40 / aq=1:1.00
Default                                  : Yes
Forced                                   : No

Audio
ID                                       : 2
Format                                   : AAC
Format/Info                              : Advanced Audio Codec
Format profile                           : LC
Codec ID                                 : A_AAC
Duration                                 : 51 min 9 s
Bit rate                                 : 196 kb/s
Channel(s)                               : 2 channels
Channel positions                        : Front: L R
Sampling rate                            : 48.0 kHz
Frame rate                               : 46.875 FPS (1024 spf)
Compression mode                         : Lossy
Delay relative to video                  : 9 ms
Stream size                              : 71.7 MiB (3%)
Language                                 : English
Default                                  : No
Forced                                   : No

ssl  EZTV RSS EZTV Status | EZTV API | DMCA: [email protected]