eztv.io | Wednesday 23rd of September 2020 07:00 PM ET
Search: or 
 

Wentworth S08E07 1080p HDTV x264-Nemo EZTV

Episode Breakdown
Wentworth
Wentworth TV Show S08E07

Season: 8
Episode: 7
Air Date: 8 September, 2020
Download Links
     Torrent Download     Magnet Download
Added 14 days ago by eztv (verified).
Tracker Statistics
Seeds: 33
Peers: 8
Stats generated @ 19:00 on 23rd Sep 2020
Torrent Info
Torrent File: Wentworth - S08E07 - 1080p HDTV Nemo[eztv.io].mkv
Torrent Hash: 81A2E292B657A46DB421D0254814CDE8C1570DBE
Filesize: 2.21 GB
Released: 8th Sep 2020

File Format: MKV (Matroska)
Resolution: 1920x1080 px
Aspect Ratio: 16:9
Alternate Releases S L
Wentworth - S08E07 - 720p HDTV Nemo 12 5
Wentworth - S08E07 - 1080p HDTV Nemo 34 6
Wentworth S08E07 HDTV x264-PHOENiX 47 3
Wentworth S08E07 720p HDTV x265-MiNX 27 1
Wentworth S08E07 720p HDTV AAC2 0 x264-Nemo 9 2
Wentworth S08E07 PDTV AAC2 0 x264-Nemo 20 3
Wentworth S08E07 1080p HDTV AAC2 0 x264-Nemo 11 2

Wentworth S08E07 - Battle Lines

Summary:

A desperate Judy seeks her father's help, but his callous rejection pushes Judy to commit a vicious act.



Wentworth S8E7 Battle Lines
Wentworth S8E7 Screenshot
Format                                   : Matroska
Format version                           : Version 4 / Version 2
File size                                : 2.21 GiB
Duration                                 : 47 min 25 s
Overall bit rate                         : 6 670 kb/s
Encoded date                             : UTC 2020-09-08 13:34:49
Writing application                      : mkvmerge v9.6.0 ('Slave To Your Mind') 64bit
Writing library                          : libebml v1.3.4 + libmatroska v1.4.5

Video
ID                                       : 1
Format                                   : AVC
Format/Info                              : Advanced Video Codec
Format profile                           : [email protected]
Format settings, CABAC                   : Yes
Format settings, ReFrames                : 4 frames
Codec ID                                 : V_MPEG4/ISO/AVC
Duration                                 : 47 min 25 s
Bit rate                                 : 6 595 kb/s
Width                                    : 1 920 pixels
Height                                   : 1 080 pixels
Display aspect ratio                     : 16:9
Frame rate mode                          : Constant
Frame rate                               : 25.000 FPS
Color space                              : YUV
Chroma subsampling                       : 4:2:0
Bit depth                                : 8 bits
Scan type                                : Progressive
Bits/(Pixel*Frame)                       : 0.127
Stream size                              : 2.14 GiB (97%)
Writing library                          : x264 core 148 r2721 72d53ab
Encoding settings                        : cabac=1 / ref=4 / deblock=1:0:0 / analyse=0x3:0x133 / me=umh / subme=9 / psy=1 / psy_rd=1.00:0.00 / mixed_ref=1 / me_range=16 / chroma_me=1 / trellis=2 / 8x8dct=1 / cqm=0 / deadzone=21,11 / fast_pskip=1 / chroma_qp_offset=-2 / threads=12 / lookahead_threads=1 / sliced_threads=0 / nr=0 / decimate=1 / interlaced=0 / bluray_compat=0 / constrained_intra=0 / bframes=3 / b_pyramid=2 / b_adapt=2 / b_bias=0 / direct=3 / weightb=1 / open_gop=0 / weightp=2 / keyint=250 / keyint_min=25 / scenecut=40 / intra_refresh=0 / rc_lookahead=60 / rc=abr / mbtree=1 / bitrate=6595 / ratetol=1.0 / qcomp=0.60 / qpmin=0 / qpmax=69 / qpstep=4 / ip_ratio=1.40 / aq=1:1.00
Default                                  : Yes
Forced                                   : No

Audio
ID                                       : 2
Format                                   : AAC
Format/Info                              : Advanced Audio Codec
Format profile                           : LC
Codec ID                                 : A_AAC
Duration                                 : 47 min 24 s
Bit rate                                 : 197 kb/s
Channel(s)                               : 2 channels
Channel positions                        : Front: L R
Sampling rate                            : 48.0 kHz
Frame rate                               : 46.875 FPS (1024 spf)
Compression mode                         : Lossy
Delay relative to video                  : 9 ms
Stream size                              : 66.9 MiB (3%)
Language                                 : English
Default                                  : No
Forced                                   : No


   
ssl  EZTV RSS EZTV Status | EZTV API | DMCA: [email protected]