eztv.io | Saturday 26th of September 2020 06:16 PM ET
Search: or 
 

Wentworth S08E08 1080p HDTV x264-Nemo EZTV

Episode Breakdown
Wentworth
Wentworth TV Show S08E08

Season: 8
Episode: 8
Air Date: 15 September, 2020
Download Links
     Torrent Download     Magnet Download
Added 10 days ago by eztv (verified).
Tracker Statistics
Seeds: 35
Peers: 14
Stats generated @ 18:16 on 26th Sep 2020
Torrent Info
Torrent File: Wentworth - S08E08 - 1080p HDTV Nemo[eztv.io].mkv
Torrent Hash: 5DD3513C56F5FBEA4227D42593B10EF51BE147D6
Filesize: 2.27 GB
Released: 15th Sep 2020

File Format: MKV (Matroska)
Resolution: 1920x1080 px
Aspect Ratio: 16:9
Alternate Releases S L
Wentworth - S08E08 - PDTV Nemo 16 3
Wentworth - S08E08 - 720p HDTV Nemo 20 3
Wentworth - S08E08 - 1080p HDTV Nemo 37 14
Wentworth S08E08 HDTV x264-PHOENiX 50 4
Wentworth S08E08 720p HDTV x265-MiNX 24 4
Wentworth S08E08 720p HDTV AAC2 0 x264-Nemo 18 4
Wentworth S08E08 PDTV AAC2 0 x264-Nemo 17 3

Wentworth S08E08 - Goldfish, Part 2

Summary:

With the prison in lockdown, tensions reach crisis point. Reb loses it with Miller, Lou presses Ferguson to commit an act of evil, and Allie and Ferguson face life-changing choices.



Wentworth S8E8 Goldfish, Part 2
Wentworth S8E8 Screenshot
Format                                   : Matroska
Format version                           : Version 4 / Version 2
File size                                : 2.27 GiB
Duration                                 : 48 min 38 s
Overall bit rate                         : 6 670 kb/s
Encoded date                             : UTC 2020-09-15 13:50:06
Writing application                      : mkvmerge v9.6.0 ('Slave To Your Mind') 64bit
Writing library                          : libebml v1.3.4 + libmatroska v1.4.5

Video
ID                                       : 1
Format                                   : AVC
Format/Info                              : Advanced Video Codec
Format profile                           : [email protected]
Format settings, CABAC                   : Yes
Format settings, ReFrames                : 4 frames
Codec ID                                 : V_MPEG4/ISO/AVC
Duration                                 : 48 min 38 s
Bit rate                                 : 6 598 kb/s
Width                                    : 1 920 pixels
Height                                   : 1 080 pixels
Display aspect ratio                     : 16:9
Frame rate mode                          : Constant
Frame rate                               : 25.000 FPS
Color space                              : YUV
Chroma subsampling                       : 4:2:0
Bit depth                                : 8 bits
Scan type                                : Progressive
Bits/(Pixel*Frame)                       : 0.127
Stream size                              : 2.20 GiB (97%)
Writing library                          : x264 core 148 r2721 72d53ab
Encoding settings                        : cabac=1 / ref=4 / deblock=1:0:0 / analyse=0x3:0x133 / me=umh / subme=9 / psy=1 / psy_rd=1.00:0.00 / mixed_ref=1 / me_range=16 / chroma_me=1 / trellis=2 / 8x8dct=1 / cqm=0 / deadzone=21,11 / fast_pskip=1 / chroma_qp_offset=-2 / threads=12 / lookahead_threads=1 / sliced_threads=0 / nr=0 / decimate=1 / interlaced=0 / bluray_compat=0 / constrained_intra=0 / bframes=3 / b_pyramid=2 / b_adapt=2 / b_bias=0 / direct=3 / weightb=1 / open_gop=0 / weightp=2 / keyint=250 / keyint_min=25 / scenecut=40 / intra_refresh=0 / rc_lookahead=60 / rc=abr / mbtree=1 / bitrate=6598 / ratetol=1.0 / qcomp=0.60 / qpmin=0 / qpmax=69 / qpstep=4 / ip_ratio=1.40 / aq=1:1.00
Default                                  : Yes
Forced                                   : No

Audio
ID                                       : 2
Format                                   : AAC
Format/Info                              : Advanced Audio Codec
Format profile                           : LC
Codec ID                                 : A_AAC
Duration                                 : 48 min 38 s
Bit rate                                 : 197 kb/s
Channel(s)                               : 2 channels
Channel positions                        : Front: L R
Sampling rate                            : 48.0 kHz
Frame rate                               : 46.875 FPS (1024 spf)
Compression mode                         : Lossy
Delay relative to video                  : 9 ms
Stream size                              : 68.5 MiB (3%)
Language                                 : English
Default                                  : No
Forced                                   : No


ssl  EZTV RSS EZTV Status | EZTV API | DMCA: [email protected]