eztv.io | Saturday 31st of October 2020 08:26 AM ET
Search: or 
 

Formula1 2020 Eifel Grand Prix Race 720p50 HDTV DD2 0 x264-wAm EZTV

Episode Breakdown
Sports
Sports TV Show

Air Date: 11 November, 2018
Download Links
     Torrent Download     Magnet Download
Added 19 days ago by eztv (verified).
Tracker Statistics
Seeds: 1
Peers: 1
Stats generated @ 08:26 on 31st Oct 2020
Torrent Info
Torrent File: Formula1 2020 Eifel Grand Prix Race 720p50 HDTV DD2.0 x264-wAm[eztv.io].mkv
Torrent Hash: 647E931038DB800F1AF40FF6D036CDE5BCE16C21
Filesize: 4.67 GB
Released: 11th Oct 2020

File Format: MKV (Matroska)
Resolution: 1280x720 px
Aspect Ratio: 16:9
Alternate Releases S L
WWE This Week In WWE 2017 01 07 720p WEB h264-OVERTiME 0 0
UFC Top 10 One Round Wars 2017 04 20 INTERNAL 720p HDTV X264-DEADPOOL 0 0
UFC Top 10 One Round Wars 2017 04 20 INTERNAL HDTV X264-DEADPOOL 0 0
WWE From The Vault 2017 08 30 AJ Styles vs Kevin Owens 720p HDTV x264-CREED 0 0
WWE From The Vault 2017 08 30 AJ Styles vs Kevin Owens HDTV x264-CREED 0 0
WWE SmackDown Live 2018 03 27 720p HDTV x264-KYR 4 2
WWE SmackDown Live 2018 03 27 720p HDTV x264 4 0
image unavailable

Sports Screenshot
SKYSPORTS F1 HD
ADVERTS REMOVED
DOLBY STEREO


Format                      : Matroska
Format version              : Version 4
File size                   : 4.67 GiB
Duration                    : 2 h 3 min
Overall bit rate            : 5 408 kb/s
Writing application         : Lavf58.29.100
Writing library             : Lavf58.29.100
ErrorDetectionType          : Per level 1

Video
ID                          : 1
Format                      : AVC
Format/Info                 : Advanced Video Codec
Format profile              : [email protected]
Format settings             : CABAC / 7 Ref Frames
Format settings, CABAC      : Yes
Format settings, Reference  : 7 frames
Codec ID                    : V_MPEG4/ISO/AVC
Duration                    : 2 h 3 min
Bit rate                    : 5 108 kb/s
Width                       : 1 280 pixels
Height                      : 720 pixels
Display aspect ratio        : 16:9
Frame rate mode             : Constant
Frame rate                  : 50.000 FPS
Color space                 : YUV
Chroma subsampling          : 4:2:0
Bit depth                   : 8 bits
Scan type                   : Progressive
Bits/(Pixel*Frame)          : 0.111
Stream size                 : 4.41 GiB (94%)
Writing library             : x264 core 157 r2935M 545de2f
Encoding settings           : cabac=1 / ref=7 / deblock=1:-3:-3 / analyse=0x3:0x113 /
me=hex / subme=9 / psy=1 / psy_rd=1.00:0.15 / mixed_ref=1 / me_range=16 /
chroma_me=1 / trellis=1 / 8x8dct=1 / cqm=0 / deadzone=21,11 / fast_pskip=1 /
chroma_qp_offset=-3 / threads=32 / lookahead_threads=3 / sliced_threads=0 /
nr=0 / decimate=1 / interlaced=0 / bluray_compat=0 / constrained_intra=0 /
bframes=4 / b_pyramid=2 / b_adapt=2 / b_bias=0 / direct=1 / weightb=1 /
open_gop=0 / weightp=2 / keyint=250 / keyint_min=25 / scenecut=40 /
intra_refresh=0 / rc_lookahead=40 / rc=crf / mbtree=1 / crf=21.5 / qcomp=0.60 /
qpmin=0 / qpmax=69 / qpstep=4 / ip_ratio=1.40 / aq=3:0.80
Default                     : Yes
Forced                      : No

Audio
ID                          : 2
Format                      : AC-3
Format/Info                 : Audio Coding 3
Commercial name             : Dolby Digital
Codec ID                    : A_AC3
Duration                    : 2 h 3 min
Bit rate mode               : Constant
Bit rate                    : 192 kb/s
Channel(s)                  : 2 channels
Channel layout              : L R
Sampling rate               : 48.0 kHz
Frame rate                  : 31.250 FPS (1536 SPF)
Compression mode            : Lossy
Delay relative to video     : 4 ms
Stream size                 : 170 MiB (4%)
Service kind                : Complete Main
Default                     : Yes
Forced                      : No
ssl  EZTV RSS EZTV Status | EZTV API | DMCA: [email protected]